<?xml version="1.0" standalone="no"?>
<!DOCTYPE svg PUBLIC "-//W3C//DTD SVG 1.1//EN" "http://www.w3.org/Graphics/SVG/1.1/DTD/svg11.dtd">
<svg xmlns="http://www.w3.org/2000/svg">
<metadata>Generated by Fontastic.me</metadata>
<defs>
<font id="xa" horiz-adv-x="512">
<font-face font-family="xa" units-per-em="512" ascent="480" descent="-32"/>
<missing-glyph horiz-adv-x="512" />

<glyph glyph-name="down-arrow" unicode="&#98;" d="M490 344c4 3 5 7 5 12 0 4-1 8-5 12-6 6-17 6-23 0l-209-209-210 209c-6 6-17 6-23 0-7-7-7-17 0-24l221-221c6-6 17-6 23 0z"/>
<glyph glyph-name="edit" unicode="&#99;" d="M470 473c-19 18-49 18-68 0l-307-321c-1-1-1-2-2-3l-54-112c-2-5 0-11 5-13 2-2 6-2 8 0l108 56c1 0 1 1 2 2l308 321c18 19 18 50 0 70z m-314-370l-41 42 267 279 41-42z m-51 25l34-36-70-37z m351 288l-20-21-40 42 20 21c11 12 29 12 40 0 11-11 11-30 0-42z"/>
<glyph glyph-name="email" unicode="&#100;" d="M452 412l-393 0c-24 0-44-19-44-43l0-241c0-24 20-43 44-43l393 0c24 0 44 19 44 43l0 241c0 24-20 43-44 43m0-22c1 0 2 0 4 0l-201-160-200 160c1 0 2 0 4 0z m22-262c0-12-10-22-22-22l-393 0c-12 0-22 10-22 22l0 241c0 2 1 4 1 6l211-168c2-1 4-2 6-2 3 0 5 1 7 2l211 168c0-2 1-4 1-6z"/>
<glyph glyph-name="exit" unicode="&#101;" d="M480 480c-3 4-9 4-13 0l-211-211-210 211c-4 4-10 4-14 0-3-4-3-10 0-13l211-211-211-211c-3-3-3-9 0-13 4-4 10-4 14 0l210 211 211-211c4-4 10-4 13 0 4 4 4 10 0 13l-210 211 210 211c4 3 4 9 0 13"/>
<glyph glyph-name="eye" unicode="&#102;" d="M492 271c-4 6-107 134-237 134-131 0-234-128-238-134-3-3-3-9 0-12 4-6 107-134 238-134 130 0 233 128 237 134 3 3 3 9 0 12m-237-126c-105 0-195 95-217 120 22 25 112 120 217 120 105 0 194-95 216-120-22-25-111-120-216-120m0 210c-50 0-90-40-90-90 0-50 40-90 90-90 49 0 90 40 90 90 0 50-41 90-90 90m0-160c-39 0-70 31-70 70 0 39 31 70 70 70 38 0 70-31 70-70 0-39-32-70-70-70m0 120c-6 0-10-4-10-10 0-5 4-10 10-10 16 0 30-13 30-30 0-16-14-30-30-30-17 0-30 14-30 30 0 6-5 10-10 10-6 0-10-4-10-10 0-27 22-50 50-50 27 0 50 23 50 50 0 28-23 50-50 50"/>
<glyph glyph-name="facebook" unicode="&#103;" d="M363 439c0-6 0-12 0-15-1-4-2-7-2-9-1-2-2-4-3-4-2-1-3-2-4-2-2 0-3 1-5 2-2 0-5 1-7 2-3 1-6 2-10 2-4 1-9 2-14 2-6 0-11-1-15-3-5-2-8-5-11-9-3-4-5-9-7-16-1-6-2-14-2-23l0-27 55 0c2 0 4-1 6-2 1-1 3-3 4-5 1-3 2-6 2-10 1-5 1-10 1-16 0-12-1-21-3-26-2-5-6-8-10-8l-55 0 0-236c0-2 0-4-2-5-1-2-3-3-6-4-3-1-8-2-13-3-6 0-13-1-21-1-8 0-15 1-20 1-6 1-10 2-13 3-3 1-6 2-7 4-1 1-2 3-2 5l0 236-37 0c-4 0-8 3-10 8-2 5-3 14-3 26 0 6 0 11 1 16 0 4 1 7 2 10 1 2 3 4 4 5 2 1 4 2 6 2l37 0 0 24c0 20 2 38 6 52 4 15 11 28 19 38 9 10 20 17 33 22 13 5 29 8 47 8 9 0 17-1 25-3 8-1 14-2 18-4 5-2 8-3 10-5 1-1 2-3 3-6 1-3 2-6 3-10 0-5 0-10 0-16z"/>
<glyph glyph-name="filter" unicode="&#104;" d="M504 434l-494 0 169-166 0-155 146-111 0 266z"/>
<glyph glyph-name="forward" unicode="&#105;" d="M420 144l-105 0c0 0-5 1-5-6l0-33c0 0-1-5 6-5l106 0-19-46c0 0 0-10 11-1l87 68c0 0 2 3-1 5l-91 70c0 0-8 1-5-7l17-44z m-140 10c0 0 1 0 1 0l-228 0c-12 0-21 10-21 21l0 232c0 3 0 5 1 7l203-163c2-1 4-2 7-2 2 0 4 1 6 2l203 163c1-2 1-4 1-7l0-219 21-16c0 1 0 2 0 3l0 232c0 23-19 42-42 42l-379 0c-23 0-42-19-42-42l0-232c0-23 19-42 42-42l227 0z m-227 274l379 0c1 0 2 0 4 0l-193-155-194 155c2 0 3 0 4 0z"/>
<glyph glyph-name="linkedin" unicode="&#106;" d="M129 430c0-16-3-26-10-32-6-6-18-9-36-9-18 0-31 2-37 8-6 6-9 17-9 32 0 15 3 26 9 33 7 6 19 9 37 9 18 0 30-3 37-9 6-6 9-17 9-32z m-6-372c0-2 0-3-2-5-1-2-3-3-6-4-3-1-7-2-13-2-5-1-11-1-19-1-8 0-14 0-20 1-5 0-9 1-12 2-3 1-5 2-6 4-2 2-2 3-2 5l0 278c0 2 0 3 2 5 1 2 3 3 6 4 3 1 7 2 12 3 6 0 12 1 20 1 8 0 14-1 19-1 6-1 10-2 13-3 3-1 5-2 6-4 2-2 2-3 2-5z m347 0c0-2-1-3-2-5-1-2-4-3-7-4-2-1-7-2-12-2-5-1-11-1-19-1-8 0-15 0-20 1-5 0-9 1-12 2-3 1-5 2-6 4-2 2-2 3-2 5l0 159c0 13-1 24-3 32-2 7-5 14-9 19-4 6-9 10-15 13-6 3-13 5-21 5-11 0-21-4-31-11-11-7-22-18-33-32l0-185c0-2-1-3-2-5-1-2-3-3-6-4-3-1-8-2-13-2-5-1-11-1-19-1-8 0-15 0-20 1-5 0-9 1-12 2-3 1-5 2-7 4-1 2-1 3-1 5l0 278c0 2 0 4 1 6 1 1 3 3 6 4 3 1 6 1 11 2 4 0 9 1 16 1 7 0 13-1 17-1 4-1 8-1 10-2 3-1 5-3 6-4 1-2 1-4 1-6l0-32c16 17 32 29 48 38 17 8 34 12 51 12 20 0 36-3 49-9 14-7 24-15 33-26 8-10 14-23 17-37 4-15 6-32 6-52z"/>
<glyph glyph-name="minus" unicode="&#107;" d="M474 265l-435 0c-5 0-10-4-10-9 0-6 5-10 10-10l435 0c5 0 9 4 9 10 0 5-4 9-9 9"/>
<glyph glyph-name="pdf" unicode="&#108;" d="M428 386l-6 6-80 80-6 6c-3 2-6 4-10 4l-230 0c-9 0-19-7-19-23l0-420c0-6 6-13 14-15 1 0 1 0 1 0 2 0 3-1 4-1l317 0c1 0 3 1 4 1 0 0 1 0 1 0 8 2 14 9 14 15l0 332c0 7 0 11-4 15z m-24 1l-66 0 0 67z m-308-348c0 0-1 0-1 1-2 0-2 1-2 3l0 115 324 0 0-115c0-2-1-3-2-3-1-1-1-1-2-1z m-3 135l0 285c0 2 0 7 3 7l226 0c0-1 0-2 0-3l0-92 92 0c1 0 2 0 3 1 0 0 0 0 0-1l0-197z m107-46c-3 2-6 4-9 5-4 1-7 2-10 2l-23 0 0-80 13 0 0 29 9 0c4 0 8 0 12 2 3 1 6 3 9 5 2 2 4 5 5 8 2 3 2 7 2 11 0 4 0 7-2 10-2 3-4 6-6 8z m-5-26c-1-2-2-4-3-5-2-1-3-2-5-3-1 0-3-1-4-1l-12 0 0 32 9 0c4 0 6-1 8-2 2-1 4-2 5-4 1-1 2-3 2-4 1-2 1-4 1-5 0-3-1-6-1-8z m83 21c-3 4-8 6-13 9-5 2-11 3-17 3l-24 0 0-80 30 0c1 0 2 0 4 0 3 1 5 1 7 2 3 1 5 2 8 4 3 2 5 5 7 8 3 3 4 7 6 11 1 5 2 11 2 17 0 5-1 10-3 14-1 5-4 9-7 12z m-9-50c-4-6-11-8-20-8l-12 0 0 60 7 0c6 0 11-1 15-3 4-1 7-3 10-6 2-3 3-5 4-9 1-3 1-6 1-10 0-10-2-18-5-24z m38-18l13 0 0 36 33 0 0 9-33 0 0 25 37 0 0 10-50 0z m22 245c-7 0-16 0-26-2-15 15-30 37-41 59 11 45 6 51 3 54-2 3-6 9-10 9-1 0-6-1-8-2-4-1-7-5-9-9-5-14 2-36 10-53-6-27-18-59-30-85-30-14-46-27-47-40 0-5 1-12 9-18 2-1 5-2 7-2 7 0 14 5 22 16 6 9 13 20 19 34 21 9 48 18 70 22 13-12 24-18 33-18 8 0 14 3 18 10 5 6 6 12 3 17-3 6-10 8-23 8z m-141-76c-4 3-4 5-4 5 1 5 8 13 25 22-13-23-20-27-21-27z m65 181c0 0 8-8 0-25-11 11-1 25 0 25z m-17-126c8 19 16 40 21 59 9-16 20-31 31-44-17-3-35-9-52-15z m102 3c-2-3-8-3-9-3-5 0-6 2-13 7 6 1 11 1 15 1 7 0 8-1 9-1 0-1-1-2-2-4z"/>
<glyph glyph-name="plus" unicode="&#109;" d="M478 269l-205 0 0 206-29 0 0-206-205 0 0-29 205 0 0-205 29 0 0 205 205 0z"/>
<glyph glyph-name="print" unicode="&#110;" d="M442 355l-372 0c-27 0-49-22-49-49l0-118c0-27 22-49 49-49l49 0 0-88c0-5 4-10 10-10l254 0c6 0 10 5 10 10l0 88 49 0c27 0 49 22 49 49l0 118c0 27-22 49-49 49z m-69-294l-235 0 0 137 235 0z m98 127c0-16-13-29-29-29l-49 0 0 49c0 5-4 9-10 9l-254 0c-6 0-10-4-10-9l0-49-49 0c-16 0-30 13-30 29l0 118c0 16 14 29 30 29l372 0c16 0 29-13 29-29z m-342 186c5 0 9 4 9 10l0 68 177 0 0-49c0-5 4-9 9-9l49 0 0-10c0-6 5-10 10-10 6 0 10 4 10 10l0 19c0 3-1 6-3 7l-59 59c-1 1-2 2-3 3-1 0-2 0-4 0l-195 0c-6 0-10-4-10-10l0-78c0-6 4-10 10-10z m205 65l25-26-25 0z m-245-124c-16 0-29-13-29-29 0-16 13-29 29-29 17 0 30 13 30 29 0 16-13 29-30 29z m0-39c-5 0-9 5-9 10 0 5 4 10 9 10 6 0 10-5 10-10 0-5-4-10-10-10z m255-98l-176 0c-6 0-10-4-10-9 0-6 4-10 10-10l176 0c5 0 10 4 10 10 0 5-5 9-10 9z m0-39l-176 0c-6 0-10-4-10-10 0-5 4-9 10-9l176 0c5 0 10 4 10 9 0 6-5 10-10 10z m0-39l-176 0c-6 0-10-4-10-10 0-5 4-10 10-10l176 0c5 0 10 5 10 10 0 6-5 10-10 10z"/>
<glyph glyph-name="right-arrow" unicode="&#111;" d="M161 23c-4-3-8-5-12-5-4 0-9 2-12 5-6 6-6 17 0 23l206 207-206 207c-6 6-6 17 0 23 7 7 17 7 24 0l218-218c7-7 7-17 0-24z"/>
<glyph glyph-name="search" unicode="&#112;" d="M479 41l-168 167c25 28 41 65 41 105 0 87-71 158-158 158-88 0-158-71-158-158 0-87 70-158 158-158 40 0 76 15 104 40l168-168c3-3 9-3 13 0 4 4 4 10 0 14m-425 272c0 77 63 139 140 139 76 0 139-62 139-139 0-77-63-140-139-140-77 0-140 63-140 140"/>
<glyph glyph-name="setting" unicode="&#113;" d="M484 297l-56 0c-4 15-9 32-15 46l40 40c2 1 3 4 3 6 0 3-1 6-3 7l-56 56c-4 4-10 4-14 0l-40-40c-13 6-30 11-46 15l0 57c0 5-4 9-9 9l-59 0c-6 0-10-4-10-9l0-57c-16-4-33-9-46-15l-40 40c-4 4-10 4-14 0l-56-56c-2-1-3-4-3-7 0-2 1-5 3-6l40-41c-6-13-11-30-15-45l-56 0c-6 0-10-5-10-10l0-59c0-6 4-10 10-10l56 0c4-16 9-33 15-46l-40-40c-2-2-3-4-3-7 0-3 1-5 3-7l56-56c4-3 10-3 14 0l40 40c13-6 30-11 46-15l0-56c0-6 4-10 10-10l59 0c5 0 9 4 9 10l0 56c16 4 33 9 46 15l40-40c4-3 10-3 14 0l56 56c4 4 4 10 0 14l-40 40c6 13 11 30 15 46l56 0c6 0 10 4 10 10l0 59c0 5-4 10-10 10m-9-59l-54 0c-5 0-9-4-10-8-3-11-10-40-19-55-2-3-1-8 2-12l38-38-42-42-38 39c-3 3-8 3-12 1-15-9-44-16-55-19-4-1-7-5-7-9l0-54-40 0 0 54c0 4-3 8-7 9-11 3-40 10-55 19-4 2-9 2-12-1l-38-39-42 42 38 38c4 3 4 8 2 12-9 15-16 44-19 55-1 4-5 8-9 8l-54 0 0 39 54 0c4 0 8 3 9 7 3 11 10 41 19 55 2 4 2 9-2 12l-38 38 42 42 38-38c3-3 8-4 12-1 15 8 44 15 55 18 4 1 7 5 7 10l0 54 40 0 0-54c0-5 3-9 7-10 18-4 42-10 55-18 4-3 9-2 12 1l38 38 42-42-38-38c-3-3-4-8-2-12 9-14 16-44 19-55 1-4 5-7 10-7l54 0 0-39z m-217 118c-54 0-98-44-98-99 0-54 44-98 98-98 54 0 99 44 99 98 0 55-45 99-99 99m0-177c-43 0-79 35-79 78 0 44 36 79 79 79 44 0 79-35 79-79 0-43-35-78-79-78"/>
<glyph glyph-name="teaming" unicode="&#114;" d="M234 268c5 0 9 4 9 9l0 9c-1 15-10 27-24 32l-39 11 0 14c17 13 27 33 27 55 1 36-27 67-63 68-37-1-65-32-63-68-1-22 9-42 27-55l0-14-40-11c-14-5-23-17-23-32l0-9c0-5 4-9 9-9l180 0z m-90 180c20-1 38-16 42-36-3-1-6-1-10 0-6 1-12 5-16 10-1 3-3 5-6 5-3 0-6 0-8-3-12-11-29-15-45-9 6 19 23 32 43 33m-45-51c17-5 37-2 52 8 6-6 14-10 23-11l6 0c3 0 6 0 9 0-1-25-21-45-45-46-26 2-46 23-45 49m-36-111c0 7 4 12 10 14l46 13c4 2 7 5 7 9l0 11c5-2 11-3 18-3 6 0 12 1 18 3l0-11c0-4 2-7 6-9l46-13c6-2 10-7 11-14l-162 0z m390 32l-39 11 0 14c17 13 27 33 27 55 1 36-27 67-63 68-37-1-65-32-63-68-1-22 9-42 27-55l0-14-40-11c-14-5-23-17-23-32l0-9c0-5 4-9 9-9l180 0c5 0 9 4 9 9l0 9c-1 15-11 27-24 32m-75 130c20-1 38-16 42-36-3-1-7-1-10 0-6 1-12 5-15 10-2 3-4 5-7 5-3 0-6 0-8-3-12-11-29-15-45-9 6 19 23 32 43 33m-45-51c17-5 37-2 52 8 6-6 14-10 22-11l7 0c3 0 6 0 9 0-1-25-21-45-45-46-26 2-46 23-45 49m-36-111c0 7 4 12 10 14l46 13c4 2 7 5 7 9l0 11c11-4 24-4 36 0l0-11c0-4 2-7 6-9l46-13c6-2 10-7 11-14l-162 0z m39-202l-39 11 0 14c17 13 27 33 27 55 1 36-27 67-63 68-37-1-65-32-63-68-1-22 9-42 27-55l0-14-40-11c-14-5-23-17-23-32l0-9c0-5 4-9 9-9l180 0c5 0 9 4 9 9l0 9c-1 15-11 27-24 32m-75 130c20-1 37-15 42-35-3-1-7-1-10 0-7 1-12 5-16 10-1 3-3 4-6 5-3 0-6-1-8-3-12-11-29-15-45-9 6 18 23 31 43 32m-45-51c18-5 37-2 52 8 6-6 14-9 22-11l7 0c3 0 6 0 9 1-1-25-20-46-45-47-26 2-46 23-45 49m-36-111c0 7 4 12 10 14l46 13c4 2 7 5 7 9l0 11c11-4 24-4 36 0l0-11c0-4 2-7 6-9l46-13c6-2 10-7 11-14l-162 0z m-12 138c3 3 3 9 0 12 0 0 0 1 0 1l-45 45c-4 3-9 3-13 0-3-4-3-10 0-13l45-45c4-4 9-4 13 0 0 0 0 0 0 0m230 57l-45-45c-3-3-3-9 0-12 4-4 9-4 13 0l45 45c4 3 4 9 0 12-4 4-9 4-13 0"/>
<glyph glyph-name="trash" unicode="&#115;" d="M477 429l-136 0 0 48c0 6-4 10-10 10l-155 0c-6 0-10-4-10-10l0-48-117 0c-5 0-10-5-10-10 0-5 5-10 10-10l39 0 0-379c0-6 4-10 10-10l311 0c5 0 10 4 10 10l0 379 58 0c5 0 10 5 10 10 0 5-5 10-10 10m-292 39l137 0 0-39-137 0z m214-428l-292 0 0 369 292 0z m-223 321c-6 0-10-5-10-10l0-234c0-5 4-9 10-9 5 0 9 4 9 9l0 234c0 5-4 10-9 10m77 0c-5 0-9-5-9-10l0-234c0-5 4-9 9-9 6 0 10 4 10 9l0 234c0 5-4 10-10 10m69-10l0-234c0-5 4-9 9-9 6 0 10 4 10 9l0 234c0 5-4 10-10 10-5 0-9-5-9-10"/>
<glyph glyph-name="twitter" unicode="&#116;" d="M504 388c-3 4-8 5-12 3-7-3-14-5-20-5 7 8 10 16 13 28l2 6c1 4 0 8-3 11-4 2-8 3-12 0-16-9-33-16-51-20-19 18-45 29-71 29-57 0-104-47-104-104 0-3 1-7 1-10-67 7-129 40-172 93-2 2-6 4-9 4-3-1-6-3-8-5-9-16-14-34-14-53 0-21 7-41 18-59-1 1-2 2-4 3-3 1-7 1-10-1-3-2-5-6-5-10 0-33 16-63 42-83-3 0-5-1-6-3-3-3-4-6-3-10 11-33 38-58 70-68-33-18-71-26-110-22-4 1-9-2-10-7-2-4 0-9 4-12 44-28 95-43 148-43 173 0 276 140 276 275 0 3 0 5 0 7 2 2 4 4 7 5 16 11 32 22 43 39 3 4 3 9 0 12m-55-34c-4-3-8-5-12-8-3-2-4-6-4-9 0-4 0-8 0-12 0-125-95-255-255-255-35 0-69 8-101 21 37 4 73 18 103 41 3 3 4 8 3 12-1 4-5 7-10 7-29 0-56 17-71 42 10 0 20 2 29 4 5 1 8 5 8 10-1 5-4 9-9 10-33 7-59 33-65 66 10-3 20-5 30-5 5-1 9 2 11 7 1 4-1 9-5 11-23 16-36 42-36 69 0 10 1 20 4 29 49-53 117-86 190-89 3-1 6 1 8 3 2 3 3 6 2 9-1 6-2 13-2 19 0 46 37 83 83 83 23 0 45-9 61-26 2-3 6-4 9-3 13 3 26 6 38 12-2-5-6-8-13-12-3-2-5-5-5-9 0-4 2-7 6-9 6-3 13-5 20-6-6-4-11-8-17-12"/>
<glyph glyph-name="upload" unicode="&#117;" d="M43 486l427 0 0-63-427 0z m221-107l-128-155 60 0 0-199 65 0m2 353l116-154-59 0 0-199-65 0"/>
<glyph glyph-name="star" unicode="&#118;" d="M409 16l-153 82-153-82 29 173-123 123 171 25 76 158 76-158 171-25-124-122z"/>
<glyph glyph-name="left-arrow" unicode="&#119;" d="M356 23c3-3 7-5 11-5 5 0 9 2 12 5 7 6 7 17 0 23l-206 207 206 207c7 6 7 17 0 23-6 7-17 7-23 0l-219-218c-6-7-6-17 0-24z"/>
<glyph glyph-name="assign-to" unicode="&#97;" d="M7 393l51 0c0 0 18-3 19-16l0-182c0 0-4-15-17-17l-56 0 0 13 54 0c0 0 4 2 5 7l0 176c0 0 0 4-7 4l-50 0z m70-38l15 0c0 0 21 38 60 47l78 4 48 1 24 56c0 0 6 15 24 8l172-90c0 0 14-8 8-25l-135-317c0 0-6-11-21-6l-175 89c0 0-12 6-8 18l13 31c0 0-44-8-84 42l-19 0 0 13 26 0c0 0 36-54 82-42l25 60c0 0 8-4 12-5l-43-103c0 0-1-1 2-2l173-89c0 0 3-3 6 0l134 315c0 0 4 6-3 10l-172 90c0 0-4 4-6-3l-69-165c0 0-8 4-11 8l40 94-108-3c0 0-40 1-65-48l-23 0z m119-21l-9-10c0 0 66-52 94-64 0 0 21-11 18-18 0 0-5-13-31-5 0 0-61 16-83 42l-10-8c0 0 25-32 90-47 0 0 19-7 38 2 0 0 23 18 3 34 0 0-47 26-65 37z m176-37c0 0 10 7 10-4l-43-92c0 0-7-7-9 4z m29-15c0 0 10 7 10-4l-43-91c0 0-7-7-9 3z"/>
<glyph glyph-name="mobile" unicode="&#120;" d="M172 468l-85 0c0 0-28-5-24-42 0 0 5-161 114-271 0 0 59-80 231-111 0 0 0-2 34 6 0 0 4 5 9 31l0 81c0 0-2 23-21 24l-86 0-60-56c0 0-105 63-141 155l50 56 0 103c0 0 7 13-21 24z"/>
<glyph glyph-name="personal" unicode="&#121;" d="M463 125c0-16-15-29-33-29l-350 0c-18 0-33 13-33 29l0 266c0 15 15 28 33 28l350 0c18 0 33-13 33-28z m-375 252l0-42 167-105 166 105 0 42-166-105z"/>
<glyph glyph-name="home" unicode="&#122;" d="M260 496c-94 0-170-76-170-170 0-128 170-316 170-316 0 0 169 188 169 316 0 94-76 170-169 170m0-248c-43 0-78 35-78 78 0 43 35 77 78 77 42 0 77-34 77-77 0-43-35-78-77-78"/>
</font>
</defs>
</svg>
